Anúncio

Collapse
No announcement yet.

Nenhum Azamerica reproduz Chroma subsampling 4:2:2 ???

Collapse
X
  • Filter
  • Hora
  • Show
Clear All
new posts

  • Nenhum Azamerica reproduz Chroma subsampling 4:2:2 ???

    Boas, eu tem s1001, s1009 e s2010. ñao tem como reproducir os FEEDS com Video Chroma subsampling 4:2:2 o aparelos mais novos, que tem avances em H265 e resolucao "4k", poderian fazer algo simple= o que sea compativel com estos videos que eles sao algo muito antiguo (codec H264). No 89W e algunos otros sat tem seguido os feed que ñao tem como ver. Os Aparelos como s1009 & s2010 ja Tem saida HDMI YCbCr444

    Ejemplo aqui a gravacao (com s2010) do Eliminatorias Copa do Mundo 2018:

    Código:
    Format                      : MPEG-TS
    File size                   : 219 MiB
    Duration                    : 3 min 20 s
    Overall bit rate            : 9 149 kb/s
    
    Video
    ID                          : 256 (0x100)
    Menu ID                     : 1 (0x1)
    Format                      : AVC
    Format/Info                 : Advanced Video Codec
    Format profile              : High 4:2:2[*]L4
    Format settings             : CABAC / 4 Ref Frames
    Format settings, CABAC      : Yes
    Format settings, RefFrames  : 4 frames
    Codec ID                    : 27
    Duration                    : 3 min 20 s
    Bit rate                    : 8 567 kb/s
    Width                       : 1 920 pixels
    Height                      : 1 080 pixels
    Display aspect ratio        : 16:9
    Frame rate                  : 25.000 FPS
    Standard                    : Component
    Color space                 : YUV
    Chroma subsampling          : 4:2:2
    Bit depth                   : 8 bits
    Scan type                   : MBAFF
    Scan type, store method     : Interleaved fields
    Scan order                  : Top Field First
    Bits/(Pixel*Frame)          : 0.165
    Stream size                 : 205 MiB (93%)
    Color range                 : Limited
    Color primaries             : BT.709
    Transfer characteristics    : BT.709
    Matrix coefficients         : BT.709
    
    Audio
    ID                          : 4012 (0xFAC)
    Menu ID                     : 1 (0x1)
    Format                      : MPEG Audio
    Format version              : Version 1
    Format profile              : Layer 2
    Codec ID                    : 3
    Duration                    : 3 min 20 s
    Bit rate mode               : Constant
    Bit rate                    : 128 kb/s
    Channel(s)                  : 2 channels
    Sampling rate               : 48.0 kHz
    Compression mode            : Lossy
    Delay relative to video     : -267 ms
    Stream size                 : 3.06 MiB (1%)
    s1001, s1009 , 0.90 x 3 = 61w+58w+70w ; 89w+81w ; 43w; (SDS 58w+IK$), C_band: 1.8m PBI 15ºk

  • #2
    segun comentarios, tem posibilidade com AZBox premium HD+ , receptor antiguo. otro comentarios reportam que reproduce SOLO -> MPEG2 4:2:2 , ñao H264 4:2:2. Antes o problema era procesador mais potente. os ultimos aparelos ja tem procesador potentes para HEVC & 4k. poderia reproducir via Software H264 4:2:2 http://www.sat-universe.com/showthre...=248392&page=8
    14-09-2015, 22:53
    Translate from English to Italian
    Translate from English to French
    Translate from English to German
    Translate from English to Spanish
    Translate from English to Dutch
    Translate from English to Greek
    Translate from English to Portuguese
    Translate from English to Russian
    Translate from English to Russian
    serkanguzel's Avatar
    serkanguzel
    Senior Member
    Join Date: Oct 2011
    Posts: 1,010
    Thanks: 1,390
    Thanked 1,701 Times in 666 Posts
    Country:

    Quote:
    Originally Posted by freebet1
    View Post

    i have TBS 5925 usb.
    but i want and one receiver to see feed 4:2:2 and hd feeds.
    your suggestion please
    Only blind scan ! Receivers; Technomate series, ClarckTech 4100HD etc.

    4:2:2 issue is a very different matter.

    As a receiver; It is possible with professional equipment.

    Because, 4:2:2 to decode, need a powerful processor.

    "H.264 & 4:2:2" videos the 4K receiver will decode. Because there is intensive data processing capability. ( not H.265 & 4:2:2 )

    OK !?
    __________________
    Accurate knowledge address...
    Reply With Quote
    The Following User Says Thank You to serkanguzel For This Useful Post:
    ViaHussun (14-09-2015)
    s1001, s1009 , 0.90 x 3 = 61w+58w+70w ; 89w+81w ; 43w; (SDS 58w+IK$), C_band: 1.8m PBI 15ºk

    Comment


    • #3
      Coloca por tp que o EPG funciona simples assim

      Comment


      • #4
        https://play.google.com/store/apps/d...layer.ad&hl=es probando MX player s2010 reproduce H.264 & 4:2:2 (gravacao com mesmo s2010 *.TS Feed ARG-Peru) , mais roda em camara lenta. usando SW decoder. HW decoder e HW+ ñao reproduce ese formato
        s1001, s1009 , 0.90 x 3 = 61w+58w+70w ; 89w+81w ; 43w; (SDS 58w+IK$), C_band: 1.8m PBI 15ºk

        Comment

        Working...
        X